V2EX = way to explore
V2EX 是一个关于分享和探索的地方
现在注册
已注册用户请  登录
vr4y
V2EX  ›  FFmpeg

FFMpeg 只显示一行当前状态

  •  
  •   vr4y · 2020-05-19 09:21:24 +08:00 · 2256 次点击
    这是一个创建于 871 天前的主题,其中的信息可能已经有所发展或是发生改变。
    刚装完 ffmpeg 那阵子, 转码的时候状态显示只有一行..一闪一闪实时变动,像下面这样:
    frame= 79 fps= 25 q=-0.0 size= 256kB time=00:00:00.96 bitrate=2184.7kbits/

    最近不知道我动了什么,变成转码的同时在 Termial 不停输出当前状态,像下面这样有几百上千行:
    frame= 266 fps= 19 q=-0.0 size= 2048kB time=00:00:04.70 bitrate=3569.6kbits/
    frame= 271 fps= 19 q=-0.0 size= 2304kB time=00:00:04.80 bitrate=3932.2kbits/
    frame= 278 fps= 19 q=-0.0 size= 2304kB time=00:00:04.94 bitrate=3820.7kbits/
    frame= 289 fps= 19 q=-0.0 size= 2560kB time=00:00:05.16 bitrate=4064.3kbits/
    frame= 299 fps= 19 q=-0.0 size= 2560kB time=00:00:05.36 bitrate=3912.6kbits/

    很讨厌这样被刷了屏了感觉,想找找之前的历史记录要滚半天鼠标..

    有没有大佬知道这么改回去啊...
    求指点
    谢谢
    5 条回复    2020-05-20 15:10:00 +08:00
    xmumiffy
        1
    xmumiffy  
       2020-05-19 09:27:06 +08:00 via Android
    行宽不够?
    1stlulu
        2
    1stlulu  
       2020-05-19 09:28:26 +08:00
    行宽不够
    cq65617875
        3
    cq65617875  
       2020-05-19 09:51:21 +08:00
    行宽真的不够
    lawsiki
        4
    lawsiki  
       2020-05-19 10:52:15 +08:00
    行宽确实不够
    jifengg
        5
    jifengg  
       2020-05-20 15:10:00 +08:00
    行宽的确不够
    关于   ·   帮助文档   ·   API   ·   FAQ   ·   我们的愿景   ·   广告投放   ·   感谢   ·   实用小工具   ·   1728 人在线   最高记录 5497   ·     Select Language
    创意工作者们的社区
    World is powered by solitude
    VERSION: 3.9.8.5 · 57ms · UTC 16:31 · PVG 00:31 · LAX 09:31 · JFK 12:31
    Developed with CodeLauncher
    ♥ Do have faith in what you're doing.