V2EX = way to explore
V2EX 是一个关于分享和探索的地方
现在注册
已注册用户请  登录
V2EX 提问指南
axo
V2EX  ›  问与答

这个 m3u8 怎么下载 请教一下

  •  
  •   axo · 183 天前 · 1623 次点击
    这是一个创建于 183 天前的主题,其中的信息可能已经有所发展或是发生改变。

    https://cdn.w 把 ls 中 9 文 1 删 1.co 掉 m:777/UxnBqWac/index.m3u8

    • 手机浏览器打开 → 能播放
    • 桌面 vlc 打开 → 能播放
    • N_m3u8DL-RE抓 → ERROR: The SSL connection could not be established
    • hlsdl EOF 错误
    • yt-dlp → ERROR: [generic] Unable to download webpage: EOF occurred in violation of protocol (_ssl.c:1131)
    • Lj Video Downloader → 能抓 但合并结果音画不同步(手机浏览器内播放 音画是同步的)
    17 条回复    2023-11-24 14:36:47 +08:00
    holulu
        1
    holulu  
       182 天前
    ffmpeg -i playlist.m3u8 -c copy output.mp4
    axo
        2
    axo  
    OP
       182 天前
    @holulu 下不了 提示
    [httpproxy @ 00000000004d6580] Stream ends prematurely at 0, should be 18446744073709551615
    [tls @ 00000000004d6780] Error in the pull function.
    [tls @ 00000000004d6780] IO error: I/O error
    [in#0 @ 00000000004da3c0] Error opening input: I/O error
    512357301
        3
    512357301  
       182 天前 via Android   ❤️ 1
    不限制下载方式是吗,手机下载 360 极速浏览器或者夸克浏览器,直接输入网址播放,有下载按钮,我自己尝试是可以下载的。
    shinession
        4
    shinession  
       182 天前
    github 有个 m3u8 下载器, 可以用来抓取很多不支持下载的视频
    TrevorPhillips
        5
    TrevorPhillips  
       182 天前 via Android
    帮你下载下来了,你留个联系方式给你私发过去
    axo
        6
    axo  
    OP
       182 天前
    @512357301 #3 PC 上有办法吗? PC 上试过换成手机的 ua 依然下不了
    axo
        7
    axo  
    OP
       182 天前
    @TrevorPhillips #5 不是只下这 1 个 还有很多…… 主要求方法 PC 上能下的方法
    这站挺奇怪 手机上能播能下 PC 上很多工具都不管用
    lisonfan
        8
    lisonfan  
       182 天前


    这个地址播不了,需不需要走代理?
    lisonfan
        9
    lisonfan  
       182 天前
    thomas15425
        10
    thomas15425  
       182 天前   ❤️ 1
    如果 vlc 可以播可以用 VLC 下载啊
    axo
        11
    axo  
    OP
       182 天前
    @lisonfan #8 国内直连 VLC 可播放
    axo
        12
    axo  
    OP
       182 天前
    @thomas15425 #10 谢兄弟 VLC 之前试过 mkv 封装 点下载后没反应 以为 VLC 也不行
    看完你评论又去重试 这次用 TS 封装 就正常下了... 搞定谢谢:P
    hicdn
        13
    hicdn  
       182 天前
    ffmpeg -protocol_whitelist "concat,file,subfile,http,https,tls,rtp,tcp,udp,crypto" -i "${url}" -vcodec copy -acodec copy -absf aac_adtstoasc ${out_file}
    下载没问题
    yhrzpm
        14
    yhrzpm  
       182 天前
    我一直用这个在线工具,挺好用的

    https://github.com/Momo707577045/m3u8-downloader
    Rnreck
        15
    Rnreck  
       181 天前
    @yhrzpm #14 +1
    IMengXin
        16
    IMengXin  
       180 天前
    我用的吾爱破解的,正常下载,发完整网址直接给我 ip 封了😢,/thread-785996-1-1.html
    bczhc
        17
    bczhc  
       179 天前
    新加坡 IP 访问不了,不过代理就可以了。
    ```console
    ~ ❯ curl https://cdn.wls911.com:777/UxnBqWac/index.m3u8 14:34:10
    curl: (35) OpenSSL SSL_connect: SSL_ERROR_SYSCALL in connection to cdn.wls911.com:777
    ~ ❯ np curl https://cdn.wls911.com:777/UxnBqWac/index.m3u8 -s | head 14:34:11
    #EXTM3U
    #EXT-X-VERSION:3
    #EXT-X-TARGETDURATION:4
    #EXT-X-MEDIA-SEQUENCE:0
    #EXT-X-PLAYLIST-TYPE:VOD
    #EXTINF:2.400000,
    00.ts
    #EXTINF:2.400000,
    01.ts
    #EXTINF:2.400000,
    ```

    拿国内 IP ,mpv 能正常播放,yt-dlp 也能正常下载。
    ```
    Duration: 00:47:28.48, start: 0.000000, bitrate: 651 kb/s
    Stream #0:0[0x1](und): Video: h264 (High) (avc1 / 0x31637661), yuv420p(tv, bt709, progressive), 960x720 [SAR 1:1 DAR 4:3], 581 kb/s, 25 fps, 30 tbr, 90k tbn (default)
    Metadata:
    handler_name : VideoHandler
    vendor_id : [0][0][0][0]
    Stream #0:1[0x2](und): Audio: aac (LC) (mp4a / 0x6134706D), 44100 Hz, stereo, fltp, 61 kb/s (default)
    Metadata:
    handler_name : SoundHandler
    vendor_id : [0][0][0][0]
    ```
    关于   ·   帮助文档   ·   博客   ·   API   ·   FAQ   ·   实用小工具   ·   1017 人在线   最高记录 6679   ·     Select Language
    创意工作者们的社区
    World is powered by solitude
    VERSION: 3.9.8.5 · 27ms · UTC 19:43 · PVG 03:43 · LAX 12:43 · JFK 15:43
    Developed with CodeLauncher
    ♥ Do have faith in what you're doing.