zqhong

zqhong

V2EX 第 66105 号会员,加入于 2014-06-25 10:18:42 +08:00
今日活跃度排名 851
根据 zqhong 的设置,主题列表被隐藏
二手交易 相关的信息,包括已关闭的交易,不会被隐藏
zqhong 最近回复了
4 天前
回复了 DeadLion 创建的主题 Apple 苹果新款 M1 系 CPU 电脑能打 DOTA2 么?
Does DOTA 2 work on Apple Silicon?
✳️ Yes, works via Rosetta 2

MacBook Pro 13" M1 8GB
45 FPS (60 medium)

🖥 1080p

https://doesitarm.com/game/dota-2/
内存频率对于核显性能的影响,可以看下面这个视频:
https://www.bilibili.com/video/BV1eU4y177zS/

再根据性能和价格权衡。
48 天前
回复了 adrianzhang 创建的主题 问与答 问一个黑苹果显卡型号问题
#13
#14

@mshadow @pkzcbm25

简略版:
GeForce GT 730 有多个规格,GK208 这个代号的版本才是真正的免驱显卡,架构为开普勒。

---


详细版:
GeForce GT 730 有几个规格,如下:
GF108
GK208,DDR3
GK208,GDDR5
GK107,OEM

只有 GK208 这个开普勒( Kepler )架构的 GPU 才是真正免驱的版本。

这是 dortania 网站上的介绍:
Kepler Series (GTX 6xx, 7xx)
Highest Supported OS: Current/Big Sur(11)
Initial Supported OS: Mountain Lion(10.8)

Fermi rebranded(GF108, GF117 and GF119)
Highest Supported OS: High Sierra(10.13.6)
Initial Supported OS: Lion(10.7)


我再次搜索了下 GitHub 上面相关的 EFI,用的显卡是华硕 GT730-MG-2GD3-V2,核心代号 GK208 。
该 EFI 仓库 README.md 也有说明,GT 730 仅支持开普勒架构。

参考:
https://zh.wikipedia.org/wiki/NVIDIA_GeForce_700

https://dortania.github.io/GPU-Buyers-Guide/modern-gpus/nvidia-gpu.html

https://github.com/3374575857/i5-4590-B85M-gt730-hackintosh
50 天前
回复了 adrianzhang 创建的主题 问与答 问一个黑苹果显卡型号问题
按下面的条件搜索:
蓝宝石、AMD 、DisplayPort 接口、单风扇

可以找到一些显卡,再确认是否支持黑苹果就行。

参考:
https://detail.zol.com.cn/vga_advSearch/subcate6_1_m1053-m55-s2468-s8122_1_1_0_1.html

https://dortania.github.io/GPU-Buyers-Guide/modern-gpus/amd-gpu.html
50 天前
回复了 adrianzhang 创建的主题 问与答 问一个黑苹果显卡型号问题
#1
6600xt 目前不支持黑苹果

# 2
是的,R9 Nano 符合要求。

1x HDMI
3x DisplayPort

短卡,支持黑苹果,3 个 DP 口(参考 techpowerup )。

#6

5500 XT 也符合要求,支持黑苹果。

1x HDMI
3x DisplayPort
#9

这是 Parallels Desktop 17 的介绍:
Up to 28% faster DirectX 11
(Applicable to Mac computers with Apple M1 chip only.)

他们宣传没有说清楚,得看底部的说明。看起来,只是 M1 芯片的电脑 DirectX 11 性能有提升,其他得实际测试。
81 天前
回复了 pangzhen 创建的主题 问与答 黑果的一个难以解决的问题,求助大佬
疑问:
你的 GT640 独显是什么核心的?

黑苹果免驱的是开普勒架构。

GT 640 免驱版本:Kepler edition, GK 107/208 core

---

小的建议:
1 、可以跟着 dortania 的教程,和对比 GitHub 相关的仓库。

2 、如果需要其他帮助,建议开启 OpenCore 的调试模式,贴上硬件的详细信息、EFI,以及具体的报错。

---

参考资料:
OpenCore Debugging
https://dortania.github.io/OpenCore-Install-Guide/troubleshooting/debug.html

MSI-H410M-A-PRO-OpenCore-EFI
https://github.com/goomadao/MSI-H410M-A-PRO-OpenCore-EFI
120 天前
回复了 LoneFireBlossom 创建的主题 macOS 求推荐 Mac 上好用的视频转码软件
#71

回到 71 楼的内容。

你提供的视频的封装格式是 Matroska ( MKV ),视频编码是 h264,音频编码是 aac 。
这里主要是 Matroska 这种封装格式,移动端支持比较差。h264 和 aac 是没有问题。
那其实可以只转换封装格式,其他不变。

time ffmpeg -i 60sec.mkv -vcodec libx264 -preset veryfast out1.mp4
耗时:38.930 秒

time ffmpeg -i 60sec.mkv -c copy out2.mp4
耗时:0.079 秒


速度相差很大
120 天前
回复了 LoneFireBlossom 创建的主题 macOS 求推荐 Mac 上好用的视频转码软件
#70

关于压缩问题,因为我电脑性能比较差,只截取了前 60 秒,文件名为 60sec.mkv 。

这是本地的测试结果:
2.4M Jun 25 11:14 60sec.mkv
2.3M Jun 25 11:23 crf-default.mp4
2.7M Jun 25 11:17 crf17.mp4
2.5M Jun 25 11:18 crf20.mp4
2.3M Jun 25 11:19 crf23.mp4

我认为:保持 crf 默认值( 23 )即可,没太大区别。

---

关于清晰度问题:
crf 17 ~ 18 这个范围,接近无损。默认值为 23,我肉眼看不出来。

参考:
https://trac.ffmpeg.org/wiki/Encode/H.264
120 天前
回复了 LoneFireBlossom 创建的主题 macOS 求推荐 Mac 上好用的视频转码软件
#70

下载了你提供的视频文件,该视频文件用了 Matroska 的封装格式( Container format ),兼容性比较差,换成 MP4 好一些。

这是 ffprobe 的结果:

Input #0, matroska,webm, from 'v1.mkv':
Metadata:
encoder : libebml v1.3.4 + libmatroska v1.4.5
creation_time : 2021-05-08T04:16:31.000000Z
Duration: 00:05:33.62, start: 0.000000, bitrate: 319 kb/s

Stream #0:0(eng): Video: h264 (Main), yuv420p(progressive), 2304x1440 [SAR 1:1 DAR 8:5], 30 fps, 30 tbr, 1k tbn, 60 tbc (default)

Stream #0:1: Audio: aac (LC), 44100 Hz, stereo, fltp (default)


参考:
https://zh.wikipedia.org/wiki/Matroska

https://en.wikipedia.org/wiki/Comparison_of_video_container_formats

@LoneFireBlossom
关于   ·   帮助文档   ·   FAQ   ·   API   ·   我们的愿景   ·   广告投放   ·   感谢   ·   实用小工具   ·   1449 人在线   最高记录 5497   ·     Select Language
创意工作者们的社区
World is powered by solitude
VERSION: 3.9.8.5 · 9ms · UTC 17:40 · PVG 01:40 · LAX 10:40 · JFK 13:40
♥ Do have faith in what you're doing.